优秀电影分享:The Walk 云中行走(2015)

博主点评:一部引人深思的故事片。虽然没有跌宕起伏的变化,却让我明白了很多。让我反复思考人生的意义是什么,究竟梦想是什么。(最后有下载地址)


海报:


The.Walk.2015.1080p.WEBRip.x264.AAC2.0-FGT


截图:








视频信息:


Video
ID                                       : 1
Format                                   : AVC
Format/Info                              : Advanced Video Codec
Format profile                           : High@L4
Format settings, CABAC                   : Yes
Format settings, ReFrames                : 4 frames
Codec ID                                 : avc1
Codec ID/Info                            : Advanced Video Coding
Duration                                 : 2h 3mn
Bit rate                                 : 4 000 Kbps
Width                                    : 1 920 pixels
Height                                   : 800 pixels
Display aspect ratio                     : 2.40:1
Frame rate mode                          : Constant
Frame rate                               : 29.970 fps
Color space                              : YUV
Chroma subsampling                       : 4:2:0
Bit depth                                : 8 bits
Scan type                                : Progressive
Bits/(Pixel*Frame)                       : 0.087
Stream size                              : 3.39 GiB (94%)
Title                                    : The.Walk.2015.1080p.WEBRip.x264.AAC2.0-FGT
Writing library                          : x264 core 148 r2597M e86f3a1
Encoding settings                        : cabac=1 / ref=4 / deblock=1:0:0 / analyse=0x3:0x113 / me=umh / subme=8 / psy=1 / psy_rd=1.00:0.00 / mixed_ref=1 / me_range=16 / chroma_me=1 / trellis=1 / 8x8dct=1 / cqm=0 / deadzone=21,11 / fast_pskip=1 / chroma_qp_offset=-2 / threads=40 / lookahead_threads=8 / sliced_threads=0 / nr=0 / decimate=1 / interlaced=0 / bluray_compat=0 / constrained_intra=0 / bframes=3 / b_pyramid=2 / b_adapt=2 / b_bias=0 / direct=3 / weightb=1 / open_gop=0 / weightp=2 / keyint=250 / keyint_min=25 / scenecut=40 / intra_refresh=0 / rc_lookahead=50 / rc=abr / mbtree=1 / bitrate=4000 / ratetol=1.0 / qcomp=0.60 / qpmin=0 / qpmax=69 / qpstep=4 / ip_ratio=1.40 / aq=1:1.00

Audio
ID                                       : 2
Format                                   : AAC
Format/Info                              : Advanced Audio Codec
Format profile                           : LC
Codec ID                                 : 40
Duration                                 : 2h 3mn
Bit rate mode                            : Constant
Bit rate                                 : 224 Kbps
Channel(s)                               : 2 channels
Channel positions                        : Front: L R
Sampling rate                            : 48.0 KHz
Compression mode                         : Lossy
Stream size                              : 197 MiB (5%)
Title                                    : The.Walk.2015.1080p.WEBRip.x264.AAC2.0-FGT


得分:

RARBG 投票:4.4/5

IMDB 投票:7.4/10


预告片:

Youtube:

本地:

预告片下载地址


精彩影评:


些人,有些事,没有缘由。

人们总是不禁想问:

梵高为什么画《向日葵》?

乔布斯为什么创造“苹果”?

菲利普.帕特为什么在双子座世贸大楼间走钢索?

《云中行走》导演罗伯特.泽米吉斯说:

“有些事,没有为什么。”

那些流行一时的是时尚,

那些盛行世代的是艺术。

对于梵高的画,一生只卖出去一幅,却闻名至今。

对于乔布斯,他总是需要与众不同,做变革创新。

对于菲利普,走钢索不仅是街头技艺,更是艺术。

在菲利普.帕特眼中,走钢索是优雅的平衡,完美的艺术。无论是1971年的巴黎圣母院,1973年的悉尼大桥,他一直在有等待着自己的梦想(双子座世贸大厦:北塔417米和南塔415米)落成,成为美妙的征服高度的诗人。

而这部由约瑟夫·高登-莱维特主演的电影,无论从形象,法式英文,还是约瑟夫炯炯有神的目光和激动的言辞语气,都跟真人菲利普,非常的神似。而影片由男主角菲利普,自信神气地站在自由女神像顶端的自述贯穿。这座女神的背景,似乎象征了他向往天空的自由之心。

从儿时第一次看到马戏团里走钢索的人,他就义无反顾的踏上了这条艺术之路。虽然这让身为飞行员的父亲,极为懊恼。他却毅然决然的骑着独轮车离家出走,来到了 艺术之都巴黎。但是他坚持跟朋友用英文对话,如果别人问他为什么,他就无数次自信满满地说,因为我要练习英文,有一天我会去美国。

而影片,花了一半的时间描述菲利普的成长经历,当影片过半,他跟他的同伴已经准备好一切,准备夜潜世贸大厦了。你很难想象,他们几个人,兵分两路,分别在南北塔上搬运装置,准备一切,等待第二天日出时分,进行走钢索的壮举,最后的十几小时竟然占了大半个电影的时间。

影片的节奏就像他们从南塔射向北塔的那支箭的轨迹一样。童年与成长期,这条弧线一直在上升,而急剧上升的部分,就是他们在纽约进行最后准备的一周。从各种各样的细节考察,包括菲利普在乔装工人进入未竣工的大厦时,脚掌被钉子扎穿,在床上躺了三天,之后只能拄着拐杖行动。

这 些部分的处理,像极了抢劫和警匪片,紧张刺激,仅仅有条。如何购买对讲机,使得南北塔两边的人员可以联系,又不被其他无线电窃听。如何找到足够长的钢索, 如何带着所有的装备混进110层的屋顶,如何在夜里躲避警卫的巡逻,整个夜间的过程,就像默片一样,几个人跟神出鬼没的警卫玩躲猫猫,像滑稽戏一样搬运重 物,给警卫设置机关陷阱。赤裸的在110层舞蹈,挥舞四肢寻找拴着钓鱼线的箭。终于赶在日出之时,准备好一切,安静的等待时机,完成这次表演。

在 准备全程中,菲利普从不提“死亡”这个词,对他来说,这是梦想,不是死亡。为了在这400多米的高度,走完200英尺的距离,他成千上万次的练习。就像所 有的大师一样,没有其他。没有人知道小野二郎,握过多少个寿司,没有人知道梅西练习过射门多少次。而菲利普所做的,就是从不放弃,不断的练习,进行他的大 计划:一个不会妨碍任何人,让自己自由的进行一次快乐的冒险旅程。

如 果到了这里,这群小伙子的壮举,已经让你折服,那么你还没有时间想象,接下来菲利普真正走上钢索时,将会发生什么。当钢索被收紧,平衡杆拿在手里,菲利普 已经站在钢索上,准备开始迈出第一步了。他曾说,那第一步对他来说的非常重要,他需要女朋友安妮的支持。他看着对面南塔的彼岸,渐渐在云雾中,若隐若现, 那一刻,云层遮挡了400米以下的世界,一切嘈杂都消失了,他只看到了天堂与通向天堂的阶梯——他脚下的钢索。

而 当他迈出了第一步,日出的光芒映射进来,云雾退散,菲利普走向了梦境里无数次他想征服的道路。在1974年8月7日的这天早晨,一共45分钟里,他8次穿过这条400多米高的钢索。影片此时大大发挥了3D效果的优势,钢索与脚面的紧贴,云层下地面上的渺小事物,时刻提醒人们,这是一项多么不可能完成,不敢 去想象的事情。光是向下看上一眼,就要晕厥过去了。

当 菲利普第一次成功走到对面的南塔上时,他的朋友们为他欢呼,可他却说,钢索仍在呼唤我。好不容易成功的走过了一次,菲利普像上瘾一样,再一次回到了那个令 他激动不己的钢索上。这一次,他忘记了大楼的高度,忘记了生命的危险,这一刻只有他和他的钢索,还有脚下的每一步。之后他决定做那件,他在日常表演中常常 做,但这次他说本不会做的事情。

单膝下跪,向观众致谢。于是他用被血渗红的那只脚,向身后伸去,用一个膝盖顶住钢索,慢慢单膝跪下。而这样还不够,他还要躺下,这一次,面对着天空,躺在世 界之巅,他看到海鸥在身前飞过。这一刻,他堪比这只飞翔的禽类,在同样的高度自由展翅。而面对警察的两端堵截,他依然淡定,因为他知道,警察不可能上来抓 他,他继续享受着自己的天堂之路。这一刻他已经升华为大师了,不是拥有走钢索的技艺和有勇气的人,那么简单了。

他 开始尝试更多的动作,甚至再做一件,走钢索的人绝不会做的事情——向下看。他将平衡杆放下,缓慢下蹲,用双膝抵在平衡杆上,双脚交叉踩在钢索上,用这个三 角形的三点支撑自己,他低头,向下看去。世贸大厦的楼下,早已被密密麻麻的人群挤满,他心满意足的笑了。左后一程,他像齐天大圣一样,单手肩扛着平衡杆, 一只手臂自然下垂,自己抓住了北塔的边缘,完成了这次表演。因为他不想自己被警察拽下来,不过在他还没来及说完自己的名字时,就被警察按在了地上。

当他被强行带回地面,面对无数媒体不断的追问:为什么?为什么要在世贸塔上走钢索?而他却说:没有为什么。他创造了伟大的奇迹,其美妙之处就是,对于菲利普来说,这没有为什么。

只有人类,才会去创造艺术,去做没有缘由的事情。不仅仅是为了活着,而是不断的征服自我,克服恐惧,实践自己的想法,勇往直前。菲利普说:生活就应该走在危险的边缘,你必须反抗,不循规蹈矩,永不止步。你的每一个想法,都是一个挑战,你要去实践他们。

虽然最终菲利普与一路相伴的女友安妮分手,独自留在了纽约,政府只允许他在中央公园为小朋友表演。但是他终在世贸塔顶,签上了自己的名字。他打破了陈规与恐惧,创造了优雅与永恒。

影片用中规中矩的方式讲述故事,用商业片的手法制造紧张感,最后用震撼的视觉单纯的展示菲利普的壮举。让人先舒服的聆听人物讲述童年故事,再演绎他的疯狂想法,最后令所有人都跟着他,心悬一线,颤颤巍巍的见证奇迹发生的那一刻。

2008 年导演:詹姆斯·马什,把菲利普·珀蒂的事迹拍摄成纪录片《走钢丝的人》,该片获得了当年奥斯卡最佳纪录片奖。无论是纪录片还是电影,都是值得一看的佳 作。令我们再一次感叹身为人类的不同。渺小的人类,究竟可以将自己的身体发挥至什么样的极限,达到什么样的精神境界。

这部没有给我们讲大道理的影片,却似乎给了我们更多的启示。

2015年10月22日 多伦多 小玄儿记

Dreamers电影评论:原创作者联盟成员

动画影评俱乐部成员


正片下载地址:

请用迅雷下载!!

1080P磁力链接3.59GB

720P磁力链接1.58GB

SD磁力链接776MB

来源:最牛逼的种子站:RARBG

1 条评论

发表评论

*